+ ShareSpark.net
|- Recent Posts


One Plus 6

Recent Posts

Pages: 1 2 3 4 ... 10
1
Batti Gul Meter Chalu 2018 x264 720p HD Hindi [Shahzaib Shah]













Format : Matroska
Format version : Version 4 / Version 2
File size : 839 MiB
Duration : 2 h 27 min
Overall bit rate : 796 kb/s
Movie name : Batti Gul Meter Chalu 2018 GOPISAHI

Video
Format : AVC
Format/Info : Advanced Video Codec
Codec ID : V_MPEG4/ISO/AVC
Duration : 2 h 27 min
Bit rate : 699 kb/s
Width : 1 274 pixels
Height : 536 pixels
Display aspect ratio : 2.40:1
Frame rate mode : Constant
Frame rate : 25.000 FPS
Color space : YUV
Chroma subsampling : 4:2:0
Bit depth : 8 bits
Scan type : Progressive
Bits/(Pixel*Frame) : 0.041
Stream size : 737 MiB (88%)
Title : GOPISAHI
Writing library : x264 core 155 r2901 7d0ff22

Audio
Format : AAC
Duration : 2 h 27 min
Bit rate : 96.0 kb/s
Channel(s) : 1 channel
Channel positions : Front: C
Sampling rate : 48.0 kHz
Frame rate : 46.875 FPS (1024 SPF)
Compression mode : Lossy
Delay relative to video : -21 ms
Stream size : 100 MiB (12%)
Title : GOPISAHI
Language : Hindi




 :ss:











 :download:



























2
Tigers (2018) 1080p - UntoucheD WEB HD - AVC - AAC - E-Subs - DTOne















=====================================================
Movie Info
Banner :
Year : 2014
Cast : Emraan Hashmi, Geetanjali Thapa, Danny Huston
Video: AVC
Audio : AAC
Genre : Drama , Thriller
Subtitles : English
Resolution : 1920 x 1080
Runtime : 1hr 09min xx
Source : DTOne
=====================================================

SCREENSHOTS
===========







 :ss:













 :download:






























3






Nocturnal Animals (2016) 1080p BluRay x264 Dual Audio [Hindi DD5.1 - English DD5.1] - ESUBS ~ Ranvijay

Thanks To MartySeamus Mcfly For Hindi Audio

Buy RDP Online




Quote

Format                                   : Matroska
Format version                           : Version 4 / Version 2
File size                                : 4.97 GiB
Duration                                 : 1 h 56 min
Overall bit rate                         : 6 098 kb/s
Movie name                               : Nocturnal Animals (2016) 1080p BluRay x264 Dual Audio [Hindi DD5.1 - English DD5.1] - ESUBS ~ Ranvijay

Video
ID                                       : 1
Format                                   : AVC
Format/Info                              : Advanced Video Codec
Duration                                 : 1 h 56 min
Bit rate                                 : 5 000 kb/s
Width                                    : 1 920 pixels
Height                                   : 800 pixels
Display aspect ratio                     : 2.40:1
Frame rate mode                          : Constant
Frame rate                               : 23.976 (24000/1001) FPS
Color space                              : YUV
Chroma subsampling                       : 4:2:0
Bit depth                                : 8 bits
Scan type                                : Progressive
Bits/(Pixel*Frame)                       : 0.136
Stream size                              : 4.07 GiB (82%)
Title                                    : ~Ranvijay~

Audio #1
ID                                       : 2
Format                                   : AC-3
Format/Info                              : Audio Coding 3
Codec ID                                 : A_AC3
Duration                                 : 1 h 56 min
Bit rate mode                            : Constant
Bit rate                                 : 640 kb/s
Channel(s)                               : 6 channels
Channel positions                        : Front: L C R, Side: L R, LFE
Sampling rate                            : 48.0 kHz
Frame rate                               : 31.250 FPS (1536 SPF)
Bit depth                                : 16 bits
Compression mode                         : Lossy
Stream size                              : 534 MiB (10%)
Title                                    : ~Ranvijay~
Language                                 : Hindi
Service kind                             : Complete Main
Default                                  : Yes
Forced                                   : Yes

Audio #2
ID                                       : 3
Format                                   : AC-3
Format/Info                              : Audio Coding 3
Codec ID                                 : A_AC3
Duration                                 : 1 h 56 min
Bit rate mode                            : Constant
Bit rate                                 : 448 kb/s
Channel(s)                               : 6 channels
Channel positions                        : Front: L C R, Side: L R, LFE
Sampling rate                            : 48.0 kHz
Frame rate                               : 31.250 FPS (1536 SPF)
Bit depth                                : 16 bits
Compression mode                         : Lossy
Stream size                              : 373 MiB (7%)
Title                                    : ~Ranvijay~
Language                                 : English
Service kind                             : Complete Main
Default                                  : No
Forced                                   : No

Text #1
ID                                       : 4
Format                                   : PGS
Muxing mode                              : zlib
Codec ID                                 : S_HDMV/PGS
Codec ID/Info                            : Picture based subtitle format used on BDs/HD-DVDs
Duration                                 : 1 h 44 min
Bit rate                                 : 43.7 kb/s
Count of elements                        : 2944
Stream size                              : 32.7 MiB (1%)
Title                                    : ~Ranvijay~
Language                                 : English
Default                                  : Yes
Forced                                   : Yes

Text #2
ID                                       : 5
Format                                   : UTF-8
Codec ID                                 : S_TEXT/UTF8
Codec ID/Info                            : UTF-8 Plain Text
Duration                                 : 1 h 44 min
Bit rate                                 : 65 b/s
Count of elements                        : 1470
Stream size                              : 50.5 KiB (0%)
Title                                    : ~Ranvijay~
Language                                 : English
Default                                  : No
Forced                                   : No

Chapter                                 : Yes [Original From BD]














:download:

Quote


File Leeched & Uploaded From




Don't walk as you are king, walk as you don't care who the king is....!!
Never argue with an idiot. They drag you down to their level and then beat you with experience?
4
@ Ranvijay bro,
All links are dead. Please give working Indishare,Intouploads links
5






Mission Impossible Fallout (2018) IMAX 1080p Bluray Dual Audio [Hindi DD5.1 - English DD5.1] - ESubs ~ Ranvijay

Thanks To The Punisher For Hindi Audio & Tech Bangla For Sync.

Buy RDP Online




Quote

Format                                   : Matroska
Format version                           : Version 4 / Version 2
File size                                : 6.00 GiB
Duration                                 : 2 h 27 min
Overall bit rate                         : 5 822 kb/s
Movie name                               : Mission Impossible Fallout (2018) IMAX 1080p Bluray Dual Audio [Hindi DD5.1 - English DD5.1] - ESubs ~ Ranvijay

Video
ID                                       : 1
Format                                   : AVC
Duration                                 : 2 h 27 min
Bit rate                                 : 5 000 kb/s
Width                                    : 1 920 pixels
Height                                   : 1 080 pixels
Display aspect ratio                     : 16:9
Frame rate mode                          : Constant
Frame rate                               : 23.976 (24000/1001) FPS
Color space                              : YUV
Chroma subsampling                       : 4:2:0
Bit depth                                : 8 bits
Scan type                                : Progressive
Bits/(Pixel*Frame)                       : 0.101
Stream size                              : 5.13 GiB (86%)
Title                                    : ~Ranvijay~

Audio #1
ID                                       : 2
Format                                   : AC-3
Format/Info                              : Audio Coding 3
Codec ID                                 : A_AC3
Duration                                 : 2 h 27 min
Bit rate mode                            : Constant
Bit rate                                 : 384 kb/s
Channel(s)                               : 6 channels
Channel positions                        : Front: L C R, Side: L R, LFE
Sampling rate                            : 44.1 kHz
Frame rate                               : 28.711 FPS (1536 SPF)
Bit depth                                : 16 bits
Compression mode                         : Lossy
Stream size                              : 405 MiB (7%)
Title                                    : ~Ranvijay~
Language                                 : Hindi
Service kind                             : Complete Main
Default                                  : Yes
Forced                                   : Yes

Audio #2
ID                                       : 3
Format                                   : AC-3
Format/Info                              : Audio Coding 3
Codec ID                                 : A_AC3
Duration                                 : 2 h 27 min
Bit rate mode                            : Constant
Bit rate                                 : 448 kb/s
Channel(s)                               : 6 channels
Channel positions                        : Front: L C R, Side: L R, LFE
Sampling rate                            : 48.0 kHz
Frame rate                               : 31.250 FPS (1536 SPF)
Bit depth                                : 16 bits
Compression mode                         : Lossy
Stream size                              : 472 MiB (8%)
Title                                    : ~Ranvijay~
Language                                 : English
Service kind                             : Complete Main
Default                                  : No
Forced                                   : No

Text #1
ID                                       : 4
Format                                   : PGS
Muxing mode                              : zlib
Codec ID                                 : S_HDMV/PGS
Codec ID/Info                            : Picture based subtitle format used on BDs/HD-DVDs
Duration                                 : 2 h 19 min
Bit rate                                 : 29.7 kb/s
Count of elements                        : 3111
Stream size                              : 29.5 MiB (0%)
Title                                    : ~Ranvijay~
Language                                 : English
Default                                  : Yes
Forced                                   : Yes

Text #2
ID                                       : 5
Format                                   : UTF-8
Codec ID                                 : S_TEXT/UTF8
Codec ID/Info                            : UTF-8 Plain Text
Duration                                 : 2 h 19 min
Bit rate                                 : 47 b/s
Count of elements                        : 1558
Stream size                              : 48.5 KiB (0%)
Title                                    : ~Ranvijay~
Language                                 : English
Default                                  : No
Forced                                   : No











:download:

Quote


File Leeched & Uploaded From




Don't walk as you are king, walk as you don't care who the king is....!!
Never argue with an idiot. They drag you down to their level and then beat you with experience?
6






Mission Impossible Fallout (2018) IMAX 720p Bluray x264 Dual Audio [Hindi DD5.1 - English DD5.1] - ESubs ~ Ranvijay

Thanks To The Punisher For Hindi Audio & Tech Bangla For Sync.

Buy RDP Online




Quote

Format                                   : Matroska
Format version                           : Version 4 / Version 2
File size                                : 1.94 GiB
Duration                                 : 2 h 27 min
Overall bit rate                         : 1 881 kb/s
Movie name                               : Mission Impossible Fallout (2018) IMAX 720p Bluray x264 Dual Audio [Hindi DD5.1 - English DD5.1] - ESubs ~ Ranvijay

Video
ID                                       : 1
Format                                   : AVC
Format/Info                              : Advanced Video Codec
Duration                                 : 2 h 27 min
Bit rate                                 : 1 263 kb/s
Width                                    : 1 280 pixels
Height                                   : 674 pixels
Display aspect ratio                     : 1.899
Frame rate mode                          : Constant
Frame rate                               : 23.976 (24000/1001) FPS
Color space                              : YUV
Chroma subsampling                       : 4:2:0
Bit depth                                : 8 bits
Scan type                                : Progressive
Bits/(Pixel*Frame)                       : 0.061
Stream size                              : 1.30 GiB (67%)
Title                                    : ~Ranvijay~

Audio #1
ID                                       : 2
Format                                   : AC-3
Format/Info                              : Audio Coding 3
Codec ID                                 : A_AC3
Duration                                 : 2 h 27 min
Bit rate mode                            : Constant
Bit rate                                 : 384 kb/s
Channel(s)                               : 6 channels
Channel positions                        : Front: L C R, Side: L R, LFE
Sampling rate                            : 44.1 kHz
Frame rate                               : 28.711 FPS (1536 SPF)
Bit depth                                : 16 bits
Compression mode                         : Lossy
Stream size                              : 405 MiB (20%)
Title                                    : ~Ranvijay~
Language                                 : Hindi
Service kind                             : Complete Main
Default                                  : Yes
Forced                                   : Yes

Audio #2
ID                                       : 3
Format                                   : AC-3
Format/Info                              : Audio Coding 3
Codec ID                                 : A_AC3
Duration                                 : 2 h 27 min
Bit rate mode                            : Constant
Bit rate                                 : 224 kb/s
Channel(s)                               : 6 channels
Channel positions                        : Front: L C R, Side: L R, LFE
Sampling rate                            : 48.0 kHz
Frame rate                               : 31.250 FPS (1536 SPF)
Bit depth                                : 16 bits
Compression mode                         : Lossy
Stream size                              : 236 MiB (12%)
Title                                    : ~Ranvijay~
Language                                 : English
Service kind                             : Complete Main
Default                                  : No
Forced                                   : No

Text #1
ID                                       : 4
Format                                   : PGS
Muxing mode                              : zlib
Codec ID                                 : S_HDMV/PGS
Codec ID/Info                            : Picture based subtitle format used on BDs/HD-DVDs
Duration                                 : 2 h 19 min
Bit rate                                 : 29.7 kb/s
Count of elements                        : 3111
Stream size                              : 29.5 MiB (1%)
Title                                    : ~Ranvijay~
Language                                 : English
Default                                  : Yes
Forced                                   : Yes

Text #2
ID                                       : 5
Format                                   : UTF-8
Codec ID                                 : S_TEXT/UTF8
Codec ID/Info                            : UTF-8 Plain Text
Duration                                 : 2 h 19 min
Bit rate                                 : 47 b/s
Count of elements                        : 1556
Stream size                              : 48.5 KiB (0%)
Title                                    : ~Ranvijay~
Language                                 : English
Default                                  : No
Forced                                   : No














:download:

Quote


File Leeched & Uploaded From




Don't walk as you are king, walk as you don't care who the king is....!!
Never argue with an idiot. They drag you down to their level and then beat you with experience?
7

AnyMP4 Video Enhancement 7.2.18 Multilingual | File Size: 36 MB

AnyMP4 Video Enhancement is the best choice to improve your original video to amazing quality. It enables you to enhance video quality, upscale resolution, remove the video noise, and optimize brightness and contrast to get more enjoyable video. This Video Enhancement software can also rotate or flip video to any directions such as 90 clockwise/counterclockwise or horizontal/vertical flip. Besides, you can personalize video effect such as clip, crop, 3D settings, watermark and more with this video enhancing software.

Enhance video quality in multi-method freely - upscale resolution, optimize brightness and contrast, remove the dirt-like video noise, stabilize shaky video and more
Rotate and flip previous video direction to 90 clockwise, 90 counterclockwise, horizontal and vertical path
Customize video effects with clip, crop, watermark, 3D and more video edit functions
Convert video to 4K/HD video and 200+ formats like MP4, AVI, FLV, MOV, etc.
Supported with iPhone 6s/6s plus/6/6 plus/5s/5c/5, iPad Pro, iPad mini 4, Samsung, HTC and more devices

Key Functions and Features
Improve video quality with three major options
Upscale resolution
If you are not satisfied with your original video which is showed with lower resolution, this superb enhancing weapon can help you get super video quality with higher resolution video, such as get 4K UHD videos from 1080p HD.
Optimize brightness and contrast freely
With this wonderful Video Quality Enhancer, this function will help you enhance and fix dark and unclear video to make them more enjoyable.
Remove video noise
You may find some unexpected color or dots which disturbed you on some old videos. How to remove them and improve this video quality? Just one click, it will remove the dirt-like video noise automatically.
Reduce video shaking
It's inevitable to have some videos shot with shaky hands. Maybe they are valuable but no chance to shoot again. How to stabilize shaky videos to treasure them better? With Video Enhancement, you can fix them without efforts.

Rotate and flip video direction
Rotate video to 90 clockwise and 90 counterclockwise
Sometimes, you may record some videos by phone or other devices which caused wrong viewing angle. You can rotate your video to right direction with one click as you need 90 clockwise and 90 counterclockwise.
Flip video with horizontal and vertical direction
It is a kind of practical function of this Video Enhancement software, it helps you get right video position and save you from wrong viewing angle and terrible watch feeling.

More powerful edit functions
Clip/crop/watermark video
You can clip your video length by adjusting time, crop video size by adjusting area size, add watermark on your video according to your hobbies.
Enable 3D settings
You can set 3D effect such as Anaglyph, Side by Side (Half-Width/Full), Top and Bottom (Half-Height/Full).

Convert video 200+ formats and supported by most devices
Convert video to 4k UHD/1080p HD video and 200+ formats
Besides enhancing video quality, it also supports convert video to 4K/ 1080p HD videos with high quality and convert video to MP4, AVI, FLV, MOV, MKV, WMV and more 200+ video formats.
Enjoy videos with compatible devices
How to improve video quality and then enjoy on compatible devices? This Video Enhancement can help you enhance video quality with one click and then enjoy them on iPhone 6s/6s plus/6/6 plus/5s/5/4s, iPad Pro, iPad mini 4/Air 2, iPod, Samsung, HTC, LG and more devices.

Whats New:
Updates: official site does not provide any info about changes in this version

HOMEPAGE
Code: [Select]
http://www.anymp4.com





Download From Rapidgator

Code: [Select]
http://rapidgator.net/file/a85fcffd9a704097b61f67409f129634/BaDshaH_AnyMP4.Video.Enhancement.7.2.18.rar.html




Download From Uptobox

Code: [Select]
http://uptobox.com/iv0top79clpj


8
ant-man and the wasp (2018) ki hindi original audio kab tak aegi
9
Please upload this film in size less than 1.5 GB on indishare,uptobox or intoupload
10

Anvsoft SynciOS Professional / Ultimate | File Size: 108 MB

Syncios Pro - a powerful alternative to iTunes, which provides a complete solution for transferring files such as music , video, photos , applications , e-books , contacts, messages, etc. between the computer and the device iOS. You can easily import files on iOS- device or export them from it , manage photo albums and upload photos from photostream iCloud. Download videos from Youtube and more than 100 sites without the help of iTunes, view them on the iPad / iPhone / iPod, and also get free ringtones and wallpapers.

Main Features:
- Ultimate file transfer solution between PC & iOS: Music, videos, photos, apps, ebooks, contacts, messages and more.
- Download videos from 100+ video sharing sites and transfer to iPad/iPhone/iPod.
- Massive free resources: Apps, games, wallpapers, ringtones
- Handy toolkit: Audio converter, video converter, ringtone maker, etc.
- Transfer music, video, photo, Ebook, apps, contacts, notes and more between iPod/iPhone/iPad and PC without iTunes.
- Create, edit and manage iPad/iPhone/iPod playlists.
- Delete iPhone songs, videos, contacts, apps, ringtones etc.
- Manage photo albums and download photos from icloud photo stream.
- Play iPad music and videos with the integrated player.
- Handy Toolkit: iPhone ringtone maker, free audio & video converter, etc.
- SynciOS does what iTunes does not allow you to do.

Whats New:
official site does not provide any info about changes in this version.

HOMEPAGE
Code: [Select]
http://www.syncios.com/





Download From Rapidgator

Code: [Select]
http://rapidgator.net/file/4e27f60f8dfd64f10bbed075b7de22cf/BaDshaH_Anvsoft.SynciOS.6.5.5.rar.html




Download From Uptobox

Code: [Select]
http://uptobox.com/m1891a0tf9sl


Pages: 1 2 3 4 ... 10



Back to top